Szexpláza - Ulakics Krisztina privát casting

Típus
Erotika -> XXX/SD
Peer
Méret
316.08 MB
Letöltve
381 alkalommal
Feltöltő
Fájlok száma
Feltöltve
2019.01.01 22:42
Kérjük minél tovább maradj seedelni, hogy másoknak is legyen lehetősége letölteni a torrentet. Köszönjük.

Leírás

http://szexplaza.com/2013/03/ulakics-krisztina-szex


General
Complete name : Ulakics Kriszti.mp4
Format : MPEG-4
Format profile : Base Media / Version 2
Codec ID : mp42
File size : 316 MiB
Duration : 12mn 3s
Overall bit rate mode : Variable
Overall bit rate : 3 664 Kbps
Encoded date : UTC 2012-09-15 09:32:27
Tagged date : UTC 2012-09-15 09:32:32
Writing application : mp4creator 1.6.1d
Video #1
ID : 1
Format : AVC
Format/Info : Advanced Video Codec
Format profile : [email protected]
Format settings, CABAC : No
Format settings, ReFrames : 1 frame
Codec ID : avc1
Codec ID/Info : Advanced Video Coding
Duration : 12mn 3s
Bit rate mode : Variable
Bit rate : 3 473 Kbps
Width : 720 pixels
Height : 480 pixels
Display aspect r... Bővebben
http://szexplaza.com/2013/03/ulakics-krisztina-szex


General
Complete name : Ulakics Kriszti.mp4
Format : MPEG-4
Format profile : Base Media / Version 2
Codec ID : mp42
File size : 316 MiB
Duration : 12mn 3s
Overall bit rate mode : Variable
Overall bit rate : 3 664 Kbps
Encoded date : UTC 2012-09-15 09:32:27
Tagged date : UTC 2012-09-15 09:32:32
Writing application : mp4creator 1.6.1d
Video #1
ID : 1
Format : AVC
Format/Info : Advanced Video Codec
Format profile : [email protected]
Format settings, CABAC : No
Format settings, ReFrames : 1 frame
Codec ID : avc1
Codec ID/Info : Advanced Video Coding
Duration : 12mn 3s
Bit rate mode : Variable
Bit rate : 3 473 Kbps
Width : 720 pixels
Height : 480 pixels
Display aspect ratio : 3:2
Frame rate mode : Constant
Frame rate : 30.000 fps
Standard : NTSC
Color space : YUV
Chroma subsampling : 4:2:0
Bit depth : 8 bits
Scan type : Progressive
Bits/(Pixel*Frame) : 0.335
Stream size : 300 MiB (95%)
Language : English
Encoded date : UTC 2012-09-15 09:32:27
Tagged date : UTC 2012-09-15 09:32:32
Audio #2
ID : 2
Format : AAC
Format/Info : Advanced Audio Codec
Format profile : LC
Codec ID : 40
Duration : 12mn 2s
Bit rate mode : Variable
Bit rate : 192 Kbps
Maximum bit rate : 224 Kbps
Channel(s) : 2 channels
Channel positions : Front: L R
Sampling rate : 48.0 KHz
Compression mode : Lossy
Stream size : 16.2 MiB (5%)
Language : English
Encoded date : UTC 2012-09-15 09:32:32
Tagged date : UTC 2012-09-15 09:32:32 Kevesebb