Jumanji.The.Next.Level.2019.1080p.HC.HDRip.MD.Hun.x264-PluSUltra

Jumanji - A következő szint (Jumanji: The Next Level)

Típus
Film -> Film/HU/CAM
Peer
Méret
5.96 GB
Letöltve
1 499 alkalommal
Feltöltő
Fájlok száma
Feltöltve
2020.02.14 11:52
Nyelv
Magyar
Megköszönte
1 felhasználó
Kérjük minél tovább maradj seedelni, hogy másoknak is legyen lehetősége letölteni a torrentet. Köszönjük.

Leírás

A játék, amely beszippantja fantáziavilágába a játékosait, még működik. A régi barátok akaratuk ellenére visszakerülnek a következő pályára… de a felállás már egészen más, mint legutóbb.
Miután Spencert beszippantja a program, három régi haverja természetesen kötelességének érzi, hogy megpróbálja kimenteni. Azt hiszik, az ismerős terepen könnyen boldogulnak majd, de nem számolnak vele, hogy néhány új játékos mindent megváltoztathat. Spencer nagyapja (Danny DeVito) és annak nyugdíjas haverja (Danny Glover) is követi őket. Az avatárok (Dwayne Johnson, Jack Black, Kevin Hart és Karen Gillan) összekeverednek, a tétek nőnek, a dzsungel helyett behavazott hegyeken és forró sivatagban kell megoldaniuk a feladatot, ráadásul már a startvonalnál kiderül: ezúttal egy játékos nem kerülhet ki élve Jumanjiból…
2017 egyik legnagyobb mozis meglepetése volt a Jumani – Vár a dzsungel, amely négy főszereplőjének, akció, fantázia és vígjáték tökéletes arányú keverésének és persze a Robin Willi... Bővebben
A játék, amely beszippantja fantáziavilágába a játékosait, még működik. A régi barátok akaratuk ellenére visszakerülnek a következő pályára… de a felállás már egészen más, mint legutóbb.
Miután Spencert beszippantja a program, három régi haverja természetesen kötelességének érzi, hogy megpróbálja kimenteni. Azt hiszik, az ismerős terepen könnyen boldogulnak majd, de nem számolnak vele, hogy néhány új játékos mindent megváltoztathat. Spencer nagyapja (Danny DeVito) és annak nyugdíjas haverja (Danny Glover) is követi őket. Az avatárok (Dwayne Johnson, Jack Black, Kevin Hart és Karen Gillan) összekeverednek, a tétek nőnek, a dzsungel helyett behavazott hegyeken és forró sivatagban kell megoldaniuk a feladatot, ráadásul már a startvonalnál kiderül: ezúttal egy játékos nem kerülhet ki élve Jumanjiból…
2017 egyik legnagyobb mozis meglepetése volt a Jumani – Vár a dzsungel, amely négy főszereplőjének, akció, fantázia és vígjáték tökéletes arányú keverésének és persze a Robin Williams-féle alapötletnek köszönhetően nemcsak hatalmas nézettségre tett szert, hanem rögtön legendává is vált.
Dwayne Johnson pillanatnyilag a világ legsikeresebb színésze. Jack Black, Kevin Hart és Karen Gillan pedig nagyszerű csapat: jöhet az új Jumanji!



Hang:Netmozi
Format version : Version 4
File size : 5.96 GiB
Duration : 2 h 3 min
Overall bit rate : 6 922 kb/s
Encoded date : UTC 2020-02-13 11:51:33
Writing application : mkvmerge v41.0.0 ('Smarra') 64-bit
Writing library : libebml v1.3.9 + libmatroska v1.5.2
Writing frontend : StaxRip v1.7.0.0

Video
ID : 2
Format : AVC
Format/Info : Advanced Video Codec
Format profile : [email protected]
Format settings : CABAC / 4 Ref Frames
Format settings, CABAC : Yes
Format settings, RefFrames : 4 frames
Codec ID : V_MPEG4/ISO/AVC
Duration : 2 h 3 min
Bit rate : 6 750 kb/s
Width : 1 920 pixels
Height : 804 pixels
Display aspect ratio : 2.40:1
Frame rate mode : Constant
Frame rate : 29.970 (30000/1001) FPS
Color space : YUV
Chroma subsampling : 4:2:0
Bit depth : 8 bits
Scan type : Progressive
Bits/(Pixel*Frame) : 0.146
Stream size : 5.80 GiB (97%)
Writing library : x264 core 152 r2851 ba24899
Encoding settings : cabac=1 / ref=3 / deblock=1:-2:-2 / analyse=0x3:0x113 / me=hex / subme=7 / psy=1 / psy_rd=1.00:0.00 / mixed_ref=1 / me_range=16 / chroma_me=1 / trellis=1 / 8x8dct=1 / cqm=0 / deadzone=21,11 / fast_pskip=1 / chroma_qp_offset=-2 / threads=18 / lookahead_threads=3 / sliced_threads=0 / nr=0 / decimate=1 / interlaced=0 / bluray_compat=0 / constrained_intra=0 / bframes=3 / b_pyramid=2 / b_adapt=1 / b_bias=0 / direct=1 / weightb=1 / open_gop=0 / weightp=2 / keyint=250 / keyint_min=25 / scenecut=40 / intra_refresh=0 / rc_lookahead=40 / rc=abr / mbtree=1 / bitrate=6750 / ratetol=1.0 / qcomp=0.60 / qpmin=0 / qpmax=69 / qpstep=4 / ip_ratio=1.40 / aq=1:1.00
Default : Yes
Forced : No

Audio
ID : 1
Format : AAC LC
Format/Info : Advanced Audio Codec Low Complexity
Codec ID : A_AAC-2
Duration : 2 h 3 min
Bit rate : 182 kb/s
Channel(s) : 2 channels
Channel layout : L R
Sampling rate : 44.1 kHz
Frame rate : 43.066 FPS (1024 SPF)
Compression mode : Lossy
Stream size : 160 MiB (3%)
Default : Yes
Forced : No Kevesebb
IMDb
Magyar cím
Jumanji - A következő szint
Eredeti cím
Jumanji: The Next Level
Rendező
Megjelenés
2019.12.13
Kategóriák
Játékidő
123 perc